pinnacle studio  

Вернуться   pinnacle studio > Информационный раздел > Для новичков
Для новичков Просьба новичкам задавать вопросы в этом разделе - Тут вопросы будут просматриваться модерами и переноситься в соответствущие разделы. Раздел является ОПЕРАТИВНЫМ!!!!!!



Недвижимость в Йошкар-Оле
Ответ
 
LinkBack Опции темы
  (#1) Старый
Отзывов: (0)
 
Сообщений: 12
Благодарностей: 1
Регистрация: 20.01.2008
Страна: Ukraine
Конфигурация компа:
По умолчанию Рассинхрон звука в Pinnacle. - 22.12.2013, 13:25

Не могу в Pinnacle обрабатывать клипы с фотоаппарата - сползает звук уже на временной ленте. Если перекодировать в MP-4 всё нормально.
В Sony Vegas таких проблем нет.
Может кто подскажет простое решение проблемы для Pinnacle?
Заранее спасибо!


Вот данные файла:

Формат : AVI
Формат/Информация : Audio Video Interleave
Размер файла : 640 Мбайт
Продолжительность : 16 м.
Общий поток : 5274 Кбит/сек
Дата мастеринга : THU DEC 19 10:07:50 2013
Программа кодирования : CanonMVI02

Видео
Идентификатор : 0
Формат : JPEG
Идентификатор кодека : MJPG
Продолжительность : 16 м.
Битрейт : 5180 Кбит/сек
Ширина : 320 пикселей
Высота : 240 пикселей
Высота оригинала : 480 пикселей
Соотношение сторон : 4:3
Частота кадров : 30,000 кадров/сек
Цветовое пространство : YUV
Субдискретизация насыщенности : 4:2:2
Битовая глубина : 8 бит
Тип развёртки : Чересстрочная
Метод сжатия : С потерями
Бит/(Пиксели*Кадры) : 2.248
Размер потока : 629 Мбайт (98%)
Ответить с цитированием
 
  (#2) Старый
Основатель форума
Отзывов: (494)
 
Аватар для Доктор ВОВАН
 
Сообщений: 9,184
Благодарностей: 62480
Регистрация: 07.11.2005
Адрес: Питер Russian Federation
Конфигурация компа:
Отправить сообщение для Доктор ВОВАН с помощью ICQ Отправить сообщение для Доктор ВОВАН с помощью Skype™
По умолчанию 22.12.2013, 14:06

может с кадрами напутано?


[Для просмотра данной ссылки нужно ]
Ответить с цитированием
  (#3) Старый
Отзывов: (0)
 
Сообщений: 12
Благодарностей: 1
Регистрация: 20.01.2008
Страна: Ukraine
Конфигурация компа:
По умолчанию 22.12.2013, 14:14

Воспроизведение в проигрывателе нормальное, конвертируется нормально, а вот в Pinnacle, на ленте, прогрессирующий рассинхрон...
Ответить с цитированием
  (#4) Старый
15 HARD 2

Отзывов: (0)
 
Сообщений: 525
Благодарностей: 853
Регистрация: 15.10.2007
Адрес: Оренбургская обл. Russian Federation
Конфигурация компа:
Фото/видео:
Отправить сообщение для alexei_56rus с помощью ICQ
По умолчанию 22.12.2013, 14:43

Zorepad, ответь пожалуйста на пару вопросов:

- каковы параметры проекта Pinnacle, в котором у тебя наблюдается рассинхрон с этим исходником;

- чем перекодируешь исходник, и с какими настройками получаемого на выходе MP-4...
Ответить с цитированием
Этот участник поблагодарил(а) alexei_56rus за это полезное сообщение:
  (#5) Старый
Отзывов: (0)
 
Сообщений: 12
Благодарностей: 1
Регистрация: 20.01.2008
Страна: Ukraine
Конфигурация компа:
По умолчанию 22.12.2013, 20:30

В настройках стоит "по первому клипу" а если не обнаружено настроек, то PAL Стандартная.
Конвертировал с помощью Format Factory.

Данные после конвертирования:

Формат : MPEG-4
Профиль формата : Base Media
Идентификатор кодека : isom
Размер файла : 136 Мбайт
Продолжительность : 16 м.
Режим общего битрейта : Переменный
Общий поток : 1123 Кбит/сек
Дата кодирования : UTC 2013-12-22 16:21:17
Дата пометки : UTC 2013-12-22 16:21:17
Программа кодирования : FormatFactory : [Для просмотра данной ссылки нужно ]

Видео
Идентификатор : 1
Формат : MPEG-4 Visual
Профиль формата : Simple@L1
Параметр BVOP формата : Нет
Параметр QPel формата : Нет
Параметр GMC формата : Без точки перехода
Параметр матрицы формата : Default (H.263)
Идентификатор кодека : 20
Продолжительность : 16 м.
Вид битрейта : Переменный
Битрейт : 1023 Кбит/сек
Максимальный битрейт : 1946 Кбит/сек
Ширина : 320 пикселей
Высота : 240 пикселей
Соотношение сторон : 4:3
Режим частоты кадров : Постоянный
Частота кадров : 30,000 кадров/сек
Цветовое пространство : YUV
Субдискретизация насыщенности : 4:2:0
Битовая глубина : 8 бит
Тип развёртки : Прогрессивная
Метод сжатия : С потерями
Бит/(Пиксели*Кадры) : 0.444
Размер потока : 124 Мбайт (91%)
Библиотека кодирования : Lavc53.8.0
Дата кодирования : UTC 2013-12-22 16:21:17
Дата пометки : UTC 2013-12-22 16:21:25
Ответить с цитированием
  (#6) Старый
Основатель форума
Отзывов: (494)
 
Аватар для Доктор ВОВАН
 
Сообщений: 9,184
Благодарностей: 62480
Регистрация: 07.11.2005
Адрес: Питер Russian Federation
Конфигурация компа:
Отправить сообщение для Доктор ВОВАН с помощью ICQ Отправить сообщение для Доктор ВОВАН с помощью Skype™
По умолчанию 22.12.2013, 23:14

[Для просмотра данной ссылки нужно ], а причем тут ПАЛ и 30 кадров?


[Для просмотра данной ссылки нужно ]
Ответить с цитированием
Этот участник поблагодарил(а) Доктор ВОВАН за это полезное сообщение:
  (#7) Старый
Отзывов: (0)
 
Сообщений: 12
Благодарностей: 1
Регистрация: 20.01.2008
Страна: Ukraine
Конфигурация компа:
По умолчанию 23.12.2013, 11:18

Вот то, что показывает Пинакля.




Наверное, мне нужно снять тестовый видеоролик и попросить его посмотреть в Пинакле специалистов.
Ответить с цитированием
  (#8) Старый
Основатель форума
Отзывов: (494)
 
Аватар для Доктор ВОВАН
 
Сообщений: 9,184
Благодарностей: 62480
Регистрация: 07.11.2005
Адрес: Питер Russian Federation
Конфигурация компа:
Отправить сообщение для Доктор ВОВАН с помощью ICQ Отправить сообщение для Доктор ВОВАН с помощью Skype™
По умолчанию 23.12.2013, 13:57

Так поставьте ей не по первому а жестко НТСЦ 30к 4Х3
Откройте новый поект, вставьте видео и посмотрите что будет.


[Для просмотра данной ссылки нужно ]
Ответить с цитированием
  (#9) Старый
Отзывов: (0)
 
Сообщений: 12
Благодарностей: 1
Регистрация: 20.01.2008
Страна: Ukraine
Конфигурация компа:
По умолчанию 23.12.2013, 23:50

Спасибо, но к сожалению не помогло.
Сейчас заливаю тестовый файл на файлообменник.

Добавлено через 3 часа 9 минут:

Если не очень сложно, посмотрите пожалуйста это тестовое видео. Программа в момент изменения картинки генерирует звук. Часы только для примерного ожидания изменений. В медиа-проигрывателе все ок. На временной шкале в Пинакле к концу рассинхрон до 4 секунд.
Скрытый текст (вы должны зарегистрироваться или войти под своим логином):
У вас нет прав чтобы видеть скрытый текст, содержащейся здесь.

Последний раз редактировалось Neb4St; 24.12.2013 в 23:35. Причина: Добавлено сообщение
Ответить с цитированием
  (#10) Старый
15 HARD 2

Отзывов: (0)
 
Сообщений: 525
Благодарностей: 853
Регистрация: 15.10.2007
Адрес: Оренбургская обл. Russian Federation
Конфигурация компа:
Фото/видео:
Отправить сообщение для alexei_56rus с помощью ICQ
По умолчанию 24.12.2013, 18:21

Интерес распирает, хочется посмотреть-проверить, но нет времени на скачивание в бесплатном режиме с "депозита"...
Может быть на "русфолдер" зальёте, или на "яндекс-диск" ?
Ответить с цитированием
Этот участник поблагодарил(а) alexei_56rus за это полезное сообщение:
Ответ

Социальные закладки


Здесь присутствуют: 1 (пользователей: 0 , гостей: 1)
 
Опции темы

Ваши права в разделе
Вы не можете создавать новые темы
Вы не можете отвечать в темах
Вы не можете прикреплять вложения
Вы не можете редактировать свои сообщения

BB коды Вкл.
Смайлы Вкл.
[IMG] код Вкл.
HTML код Выкл.
Trackbacks are Выкл.
Pingbacks are Выкл.
Refbacks are Выкл.


Похожие темы
Тема Автор Раздел Ответов Последнее сообщение
Расхождение в скорости звука (не рассинхрон!) vladsity Pinnacle Studio 10 11 14.08.2012 17:36
Рассинхрон звука artzoom Для новичков 22 27.04.2009 19:09
Рассинхрон звука в Liquid 7 Puze4ko Avid Technology 13 21.02.2007 18:13



Все использованные на сайте названия продуктов и торговые марки принадлежат их законным владельцам.
При перепечатке или ретрансляции материалов с сервера DrBOBAH.com ссылка на сайт обязательна!
SEO by vBSEO ©2011, Crawlability, Inc.1


Принимаем WebMoney Наша кнопка