pinnacle studio  

Вернуться   pinnacle studio > Информационный раздел > Для новичков
Для новичков Просьба новичкам задавать вопросы в этом разделе - Тут вопросы будут просматриваться модерами и переноситься в соответствущие разделы. Раздел является ОПЕРАТИВНЫМ!!!!!!



Недвижимость в Йошкар-Оле
Ответ
 
LinkBack Опции темы
  (#1) Старый
Отзывов: (0)
 
Сообщений: 6
Благодарностей: 1
Регистрация: 24.11.2011
Страна: Russian Federation
Конфигурация компа:
По умолчанию При создании клипа звук в видео запаздывает - 01.05.2013, 18:01

Создаю клип в Pinnacle Studio 15 и звук в клипе уже готовом запаздывает, при чем ролики с которых я создаю клип(нарезку) там со звуком норм
Ответить с цитированием
 
  (#2) Старый
Основатель форума
Отзывов: (494)
 
Аватар для Доктор ВОВАН
 
Сообщений: 9,173
Благодарностей: 62457
Регистрация: 07.11.2005
Адрес: Питер Russian Federation
Конфигурация компа:
Отправить сообщение для Доктор ВОВАН с помощью ICQ Отправить сообщение для Доктор ВОВАН с помощью Skype™
По умолчанию 01.05.2013, 19:04

не используйте мп4 в качестве источника


[Для просмотра данной ссылки нужно ]
Ответить с цитированием
Этот участник поблагодарил(а) Доктор ВОВАН за это полезное сообщение:
  (#3) Старый
Отзывов: (0)
 
Сообщений: 6
Благодарностей: 1
Регистрация: 24.11.2011
Страна: Russian Federation
Конфигурация компа:
По умолчанию 01.05.2013, 21:26

а какой лучше всего использовать?
Ответить с цитированием
  (#4) Старый
Основатель форума
Отзывов: (494)
 
Аватар для Доктор ВОВАН
 
Сообщений: 9,173
Благодарностей: 62457
Регистрация: 07.11.2005
Адрес: Питер Russian Federation
Конфигурация компа:
Отправить сообщение для Доктор ВОВАН с помощью ICQ Отправить сообщение для Доктор ВОВАН с помощью Skype™
По умолчанию 01.05.2013, 22:00

Лучший формат для Студии MJPEG - а также DV. mpeg2 на крайняк.


[Для просмотра данной ссылки нужно ]
Ответить с цитированием
Эти 2 пользователей(ля) поблагодарили Доктор ВОВАН за это полезное сообщение:
  (#5) Старый
Отзывов: (0)
 
Сообщений: 6
Благодарностей: 1
Регистрация: 24.11.2011
Страна: Russian Federation
Конфигурация компа:
По умолчанию 02.05.2013, 19:26

вообще видео исходник попался такой карявый, вот его лог

Format : MPEG-PS
File size : 969 MiB
Duration : 28mn 54s
Overall bit rate mode : Variable
Overall bit rate : 4 687 Kbps

Video
ID : 224 (0xE0)
Format : MPEG Video
Format version : Version 2
Format profile : Main@Main
Format settings, BVOP : Yes
Format settings, Matrix : Custom
Format settings, GOP : M=3, N=12
Duration : 28mn 54s
Bit rate mode : Variable
Bit rate : 4 210 Kbps
Maximum bit rate : 9 282 Kbps
Width : 720 pixels
Height : 576 pixels
Display aspect ratio : 4:3
Frame rate : 25.000 fps
Standard : PAL
Color space : YUV
Chroma subsampling : 4:2:0
Bit depth : 8 bits
Scan type : Interlaced
Scan order : Top Field First
Compression mode : Lossy
Bits/(Pixel*Frame) : 0.406
Stream size : 870 MiB (90%)
Color primaries : BT.601 PAL
Transfer characteristics : BT.470 System B, BT.470 System G
Matrix coefficients : BT.601

Audio
ID : 189 (0xBD)-128 (0x80)
Format : AC-3
Format/Info : Audio Coding 3
Mode extension : CM (complete main)
Format settings, Endianness : Big
Muxing mode : DVD-Video
Duration : 28mn 54s
Bit rate mode : Constant
Bit rate : 384 Kbps
Channel(s) : 2 channels
Channel positions : Front: L R
Sampling rate : 48.0 KHz
Bit depth : 16 bits
Compression mode : Lossy
Delay relative to video : -384ms
Stream size : 79.4 MiB (8%)

попытался пере конвертировать прогой Формат фактори так оно доходя до 100 проц, обнуляется и конвертация начинается опять с 1 процента, сейчас другой прогой попробуй пере конвертировать
Ответить с цитированием
Этот участник поблагодарил(а) ursawarion за это полезное сообщение:
  (#6) Старый
Отзывов: (0)
 
Сообщений: 6
Благодарностей: 1
Регистрация: 24.11.2011
Страна: Russian Federation
Конфигурация компа:
По умолчанию 04.05.2013, 16:28

кто подскажет делаю конвертирование ролика исходника в формат мп2 прогой Tipard Total Media Converter, в итоге прерывание, конвертирование до конца не произведено тока около 7 мин ролик получается, а исходник около 30 мин идет, пробовал прогой формат фактори тоже самое, пробовал в другие форматы перегнать и в MJPEG и т д то же, это что ролик битый? можно что сделать?
Ответить с цитированием
  (#7) Старый
Отзывов: (0)
 
Сообщений: 6
Благодарностей: 1
Регистрация: 24.11.2011
Страна: Russian Federation
Конфигурация компа:
По умолчанию 06.05.2013, 19:30

так кто что скажет?
Ответить с цитированием
  (#8) Старый
15 HARD 3


Отзывов: (0)
 
Аватар для zamsb
 
Сообщений: 336
Благодарностей: 685
Регистрация: 20.04.2010
Адрес: Волгоград Russian Federation
Конфигурация компа:
Фото/видео:
По умолчанию 08.05.2013, 10:53

Самый неприхотливый и качественный кодировщик, с которым приходилось работать это TMPGEnc 4.0 XPress 4.7.3.292. Никогда не было никаких нареканий.
Ответить с цитированием
Эти 2 пользователей(ля) поблагодарили zamsb за это полезное сообщение:
  (#9) Старый
Отзывов: (0)
 
Сообщений: 6
Благодарностей: 1
Регистрация: 24.11.2011
Страна: Russian Federation
Конфигурация компа:
По умолчанию 16.05.2013, 20:54

спс за совет XPress 4.7.3.292 хорошо справился!
Ответить с цитированием
Ответ

Социальные закладки


Здесь присутствуют: 1 (пользователей: 0 , гостей: 1)
 
Опции темы

Ваши права в разделе
Вы не можете создавать новые темы
Вы не можете отвечать в темах
Вы не можете прикреплять вложения
Вы не можете редактировать свои сообщения

BB коды Вкл.
Смайлы Вкл.
[IMG] код Вкл.
HTML код Выкл.
Trackbacks are Выкл.
Pingbacks are Выкл.
Refbacks are Выкл.


Похожие темы
Тема Автор Раздел Ответов Последнее сообщение
Тормозит видео и заикается звук DVD-видео, созданного в Pinnacle DiRoS Для новичков 14 13.10.2010 09:30
В AP CS3 звук отстает от видео (HDV видео) vitamin_a Premiere Pro 3 14.05.2010 09:47
Звук 5.1 и видео avi Олег Зброжик Smart Sound, музыка и звук 11 17.01.2010 09:02
Видео и звук наоборот Imperia Для новичков 2 02.04.2008 21:51
выдернуть звук из клипа Серик Для новичков 11 08.12.2007 01:37



Все использованные на сайте названия продуктов и торговые марки принадлежат их законным владельцам.
При перепечатке или ретрансляции материалов с сервера DrBOBAH.com ссылка на сайт обязательна!
SEO by vBSEO ©2011, Crawlability, Inc.1


Принимаем WebMoney Наша кнопка