pinnacle studio  

Вернуться   pinnacle studio > Информационный раздел > Для новичков
Для новичков Просьба новичкам задавать вопросы в этом разделе - Тут вопросы будут просматриваться модерами и переноситься в соответствущие разделы. Раздел является ОПЕРАТИВНЫМ!!!!!!



Недвижимость в Йошкар-Оле
Ответ
 
LinkBack Опции темы
  (#1) Старый
Отзывов: (0)
 
Сообщений: 68
Благодарностей: 0
Регистрация: 17.03.2009
Адрес: Киев Ukraine
Конфигурация компа:
Фото/видео:
По умолчанию Обрезаное изображение - 08.08.2013, 12:59

Появилась проблема с отображением видео, некоторые видео файлы с разрешением 720*576 стали воспроизводиться с урезкой по бокам и сверху и снизу?!Чем это вызванно не знаю, пробовал переустанавливать кодеки не помогло, воспроизводил всеми плэерами, и монтажными прогами Едиус и Пинакл. Что делать?
[IMG][Для просмотра данной ссылки нужно ][/IMG]
Ответить с цитированием
 
  (#2) Старый
Отзывов: (0)
 
Аватар для valled
 
Сообщений: 142
Благодарностей: 760
Регистрация: 30.07.2013
Страна: Russian Federation
Конфигурация компа:
Фото/видео:
По умолчанию 08.08.2013, 13:19

создай проект с разрешением 720*576 и попробуй.
Ответить с цитированием
  (#3) Старый
Отзывов: (0)
 
Сообщений: 68
Благодарностей: 0
Регистрация: 17.03.2009
Адрес: Киев Ukraine
Конфигурация компа:
Фото/видео:
По умолчанию 08.08.2013, 13:21

пробовал, не помогло!
Ответить с цитированием
  (#4) Старый
Отзывов: (0)
 
Аватар для valled
 
Сообщений: 142
Благодарностей: 760
Регистрация: 30.07.2013
Страна: Russian Federation
Конфигурация компа:
Фото/видео:
По умолчанию 08.08.2013, 13:29

судя по картинке у вас 16:9 широкоформатный а 720*576 это 4:3
Ответить с цитированием
Этот участник поблагодарил(а) valled за это полезное сообщение:
  (#5) Старый
Основатель форума
Отзывов: (494)
 
Аватар для Доктор ВОВАН
 
Сообщений: 9,178
Благодарностей: 62463
Регистрация: 07.11.2005
Адрес: Питер Russian Federation
Конфигурация компа:
Отправить сообщение для Доктор ВОВАН с помощью ICQ Отправить сообщение для Доктор ВОВАН с помощью Skype™
По умолчанию 08.08.2013, 13:32

[Для просмотра данной ссылки нужно ],запустить прогу mediainfo и узнать данные


[Для просмотра данной ссылки нужно ]
Ответить с цитированием
  (#6) Старый
Отзывов: (0)
 
Сообщений: 68
Благодарностей: 0
Регистрация: 17.03.2009
Адрес: Киев Ukraine
Конфигурация компа:
Фото/видео:
По умолчанию 08.08.2013, 13:56

Формат : MPEG-PS
Размер файла : 4,17 Гбайт
Продолжительность : 1 ч. 35 м.
Общий поток : 6262 Кбит/сек

Видео
Идентификатор : 224 (0xE0)
Формат : MPEG Video
Версия формата : Version 2
Профиль формата : Main@High 1440
Параметр BVOP формата : Да
Параметр матрицы формата : Выборочная
Параметр GOP формата : M=3, N=15
Продолжительность : 1 ч. 35 м.
Битрейт : 6000 Кбит/сек
Ширина : 720 пикселей
Высота : 576 пикселей
Соотношение сторон : 4:3
Частота кадров : 25,000 кадров/сек
Стандарт вещания : PAL
Цветовое пространство : YUV
Субдискретизация насыщенности : 4:2:0
Битовая глубина : 8 бит
Тип развёртки : Прогрессивная
Метод сжатия : С потерями
Бит/(Пиксели*Кадры) : 0.579
Временной код первого кадра : 00:00:00:00
Оригинал временного кода : Group of pictures header
Размер потока : 3,98 Гбайт (95%)

Аудио
Идентификатор : 192 (0xC0)
Формат : MPEG Audio
Версия формата : Version 1
Профиль формата : Layer 2
Продолжительность : 1 ч. 35 м.
Вид битрейта : Постоянный
Битрейт : 160 Кбит/сек
Каналы : 2 канала
Частота : 48,0 КГц
Метод сжатия : С потерями
Размер потока : 109 Мбайт (3%)
Ответить с цитированием
  (#7) Старый
15 HARD 2


Отзывов: (0)
 
Аватар для VIKBOR
 
Сообщений: 951
Благодарностей: 8920
Регистрация: 15.05.2006
Адрес: Миасс Russian Federation
Конфигурация компа:
Фото/видео:
Отправить сообщение для VIKBOR с помощью ICQ Отправить сообщение для VIKBOR с помощью Skype™
По умолчанию 08.08.2013, 18:03

В настройках плеера установить - воспроизвести в полный экран ( типа этого будет написано в настройках)


[Для просмотра данной ссылки нужно ]
[Для просмотра данной ссылки нужно ]
Ответить с цитированием
  (#8) Старый
Отзывов: (0)
 
Сообщений: 68
Благодарностей: 0
Регистрация: 17.03.2009
Адрес: Киев Ukraine
Конфигурация компа:
Фото/видео:
По умолчанию 08.08.2013, 18:18

Скачал фильм таже история: [IMG][Для просмотра данной ссылки нужно ][/IMG]
Общее
Уникальный идентификатор : 238594016327960019653039431839677790469 (0xB37F893B36710E4C97CC4A9E34C9B905)
Полное имя : D:\Downloads\Backbeat.mkv
Формат : Matroska
Версия формата : Version 4 / Version 2
Размер файла : 1,46 Гбайт
Продолжительность : 1 ч. 36 м.
Общий поток : 2166 Кбит/сек
Дата кодирования : UTC 2013-03-04 10:54:53
Программа кодирования : mkvmerge v6.0.0 ('Coming Up For Air') built on Jan 20 2013 09:52:00
Библиотека кодирования : libebml v1.3.0 + libmatroska v1.4.0

Видео
Идентификатор : 1
Формат : AVC
Формат/Информация : Advanced Video Codec
Профиль формата : High@L4.1
Параметр CABAC формата : Да
Параметр ReFrames формата : 9 кадров
Идентификатор кодека : V_MPEG4/ISO/AVC
Продолжительность : 1 ч. 36 м.
Битрейт : 1780 Кбит/сек
Ширина : 720 пикселей
Высота : 552 пикселя
Соотношение сторон : 1,85:1
Режим частоты кадров : Постоянный
Частота кадров : 25,000 кадров/сек
Цветовое пространство : YUV
Субдискретизация насыщенности : 4:2:0
Битовая глубина : 8 бит
Тип развёртки : Прогрессивная
Бит/(Пиксели*Кадры) : 0.179
Размер потока : 1,17 Гбайт (80%)
Библиотека кодирования : x264 core 129 r2245 bc13772
Настройки программы : cabac=1 / ref=9 / deblock=1:-1:-1 / analyse=0x3:0x133 / me=umh / subme=9 / psy=1 / psy_rd=1.00:0.10 / mixed_ref=1 / me_range=32 / chroma_me=1 / trellis=2 / 8x8dct=1 / cqm=0 / deadzone=21,11 / fast_pskip=0 / chroma_qp_offset=-3 / threads=3 / lookahead_threads=1 / sliced_threads=0 / nr=0 / decimate=1 / interlaced=0 / bluray_compat=0 / constrained_intra=0 / bframes=3 / b_pyramid=2 / b_adapt=2 / b_bias=0 / direct=3 / weightb=1 / open_gop=0 / weightp=2 / keyint=250 / keyint_min=25 / scenecut=40 / intra_refresh=0 / rc_lookahead=50 / rc=2pass / mbtree=1 / bitrate=1780 / ratetol=1.0 / qcomp=0.60 / qpmin=0 / qpmax=69 / qpstep=4 / cplxblur=20.0 / qblur=0.5 / ip_ratio=1.40 / aq=1:1.00
Default : Да
Forced : Нет

Аудио #1
Идентификатор : 2
Формат : AC-3
Формат/Информация : Audio Coding 3
Профиль формата : Dolby Digital
Расширение режима : CM (complete main)
Параметр Endianness формата : Big
Идентификатор кодека : A_AC3
Продолжительность : 1 ч. 36 м.
Вид битрейта : Постоянный
Битрейт : 192 Кбит/сек
Каналы : 2 канала
Расположение каналов : Front: L R
Частота : 48,0 КГц
Битовая глубина : 16 бит
Метод сжатия : С потерями
Размер потока : 132 Мбайт (9%)
Язык : Russian
Default : Да
Forced : Нет

Аудио #2
Идентификатор : 3
Формат : AC-3
Формат/Информация : Audio Coding 3
Расширение режима : CM (complete main)
Параметр Endianness формата : Big
Идентификатор кодека : A_AC3
Продолжительность : 1 ч. 36 м.
Вид битрейта : Постоянный
Битрейт : 192 Кбит/сек
Каналы : 2 канала
Расположение каналов : Front: L R
Частота : 48,0 КГц
Битовая глубина : 16 бит
Метод сжатия : С потерями
Размер потока : 132 Мбайт (9%)
Язык : English
Default : Нет
Forced : Нет

Текст
Идентификатор : 4
Формат : UTF-8
Идентификатор кодека : S_TEXT/UTF8
Идентификатор кодека/Информация : UTF-8 Plain Text
Язык : English
Default : Да
Forced : Нет

Меню
00:02:22.640 : :Chapter 01
00:05:35.280 : :Chapter 02
00:09:48.640 : :Chapter 03
00:17:55.840 : :Chapter 04
00:33:14.440 : :Chapter 05
00:40:21.600 : :Chapter 06
00:48:38.200 : :Chapter 07
00:52:42.720 : :Chapter 08
00:54:37.280 : :Chapter 09
01:01:58.360 : :Chapter 10
01:04:07.720 : :Chapter 11
01:10:18.040 : :Chapter 12
01:14:31.480 : :Chapter 13
01:18:21.440 : :Chapter 14
01:19:51.480 : :Chapter 15
01:23:38.000 : :Chapter 16
01:25:40.120 : :Chapter 17
01:28:18.360 : :Chapter 18
01:33:19.840 : :Chapter 19
Ответить с цитированием
  (#9) Старый
Отзывов: (0)
 
Аватар для valled
 
Сообщений: 142
Благодарностей: 760
Регистрация: 30.07.2013
Страна: Russian Federation
Конфигурация компа:
Фото/видео:
По умолчанию 08.08.2013, 18:24

Мож монитор?настройки?драйвера обновить.
Ответить с цитированием
  (#10) Старый
Отзывов: (0)
 
Сообщений: 68
Благодарностей: 0
Регистрация: 17.03.2009
Адрес: Киев Ukraine
Конфигурация компа:
Фото/видео:
По умолчанию 08.08.2013, 18:42

Цитата:
Сообщение от valled Посмотреть сообщение
Мож монитор?настройки?драйвера обновить.
Какие настройки? какой монитор?
Ответить с цитированием
Ответ

Социальные закладки


Здесь присутствуют: 1 (пользователей: 0 , гостей: 1)
 
Опции темы

Ваши права в разделе
Вы не можете создавать новые темы
Вы не можете отвечать в темах
Вы не можете прикреплять вложения
Вы не можете редактировать свои сообщения

BB коды Вкл.
Смайлы Вкл.
[IMG] код Вкл.
HTML код Выкл.
Trackbacks are Выкл.
Pingbacks are Выкл.
Refbacks are Выкл.


Похожие темы
Тема Автор Раздел Ответов Последнее сообщение
Как исправить изображение? svyatoi777 Приемы видео монтажа 10 07.08.2010 14:17
дрожит изображение edge74 Для новичков 14 13.07.2010 19:59
Наложение на изображение второе изображение vihtor Для новичков 2 16.07.2008 07:55
Как повернуть изображение Сергей Сапрыкин Для новичков 4 20.04.2008 09:27
Изображение в живопись shpilka Программы 3 27.11.2007 09:10



Все использованные на сайте названия продуктов и торговые марки принадлежат их законным владельцам.
При перепечатке или ретрансляции материалов с сервера DrBOBAH.com ссылка на сайт обязательна!
SEO by vBSEO ©2011, Crawlability, Inc.1


Принимаем WebMoney Наша кнопка