pinnacle studio  

Вернуться   pinnacle studio > Информационный раздел > Для новичков
Для новичков Просьба новичкам задавать вопросы в этом разделе - Тут вопросы будут просматриваться модерами и переноситься в соответствущие разделы. Раздел является ОПЕРАТИВНЫМ!!!!!!



Недвижимость в Йошкар-Оле
Ответ
 
LinkBack Опции темы
  (#1) Старый
Отзывов: (0)
 
Сообщений: 4
Благодарностей: 1
Регистрация: 12.11.2014
Страна: Ukraine
Конфигурация компа:
Фото/видео:
По умолчанию 15.11.2014, 19:38

Добрый день. Была у Вас такая тема. Но она не помогла решить мою проблему. Ситуация: нет резкости в видео захваченном Bandicam. При воспроизведении этого же видео на плеере - все норм. перепробовал все кодеки и Рinnacle и в Bandicam. Пробовал все настройки. Переустановил Рinnacle. установил quickTime. Удалил пак кодеков. Чистил реестр. Скриншот по ссылке:
Комментарий модератора
shapoval:
[Для просмотра данной ссылки нужно ]
[Для просмотра данной ссылки нужно ]

Подскажите как решить проблемую

Добавлено через 1 час 19 минут:

Скриншот здесь: [Для просмотра данной ссылки нужно ]

Последний раз редактировалось marsman; 15.11.2014 в 19:38. Причина: Добавлено сообщение
Ответить с цитированием
 
  (#2) Старый
Основатель форума
Отзывов: (494)
 
Аватар для Доктор ВОВАН
 
Сообщений: 9,173
Благодарностей: 62457
Регистрация: 07.11.2005
Адрес: Питер Russian Federation
Конфигурация компа:
Отправить сообщение для Доктор ВОВАН с помощью ICQ Отправить сообщение для Доктор ВОВАН с помощью Skype™
По умолчанию 15.11.2014, 22:13

Первый вопрос был в теме по 16той студии. теперь 15тая. и вообще не понятно что за скриншот.


[Для просмотра данной ссылки нужно ]
Ответить с цитированием
Этот участник поблагодарил(а) Доктор ВОВАН за это полезное сообщение:
  (#3) Старый
Отзывов: (0)
 
Сообщений: 4
Благодарностей: 1
Регистрация: 12.11.2014
Страна: Ukraine
Конфигурация компа:
Фото/видео:
По умолчанию 15.11.2014, 22:29

Установлена 15 версия. Скриншот с видео. Показывает в каком виде воспроизводится видео. Не читаемые буквы.
Ответить с цитированием
  (#4) Старый
Основатель форума
Отзывов: (494)
 
Аватар для Доктор ВОВАН
 
Сообщений: 9,173
Благодарностей: 62457
Регистрация: 07.11.2005
Адрес: Питер Russian Federation
Конфигурация компа:
Отправить сообщение для Доктор ВОВАН с помощью ICQ Отправить сообщение для Доктор ВОВАН с помощью Skype™
По умолчанию 15.11.2014, 22:43

Харак-ки всех видео.


[Для просмотра данной ссылки нужно ]
Ответить с цитированием
Этот участник поблагодарил(а) Доктор ВОВАН за это полезное сообщение:
  (#5) Старый
Отзывов: (0)
 
Сообщений: 4
Благодарностей: 1
Регистрация: 12.11.2014
Страна: Ukraine
Конфигурация компа:
Фото/видео:
По умолчанию 15.11.2014, 22:48

Например этот:
Имя файла: bandicam 2014-11-12 14-48-01-343.mp4
Формат файла: .mp4 (MPEG-4)
Размер файла: 1,59 MB
Длительность: 4s 233ms
Навигация по главам: Нет
Bitrate (все потоки): 3 143 Kbps
Файл создан...: UTC 2014-11-12 12:48:01
...при помощи: BandiMp4Muxer 1.0
Название: bandicam 2014-11-12 14-48-01-343

Тип потока: Видео
Длительность: 00:00:04
Кодек: MPEG-4 Visual
Кодек/Профиль: Simple@L1
Кодек/ID: 20
Размеры изображения: 1248 x 960 (1.300)
Частота кадров: 28.821 fps
Размер потока: 1.53 MiB (97%)
Битрейт: 3 042 Kbps

Тип потока: Звук #1
Длительность: 00:00:04.176
Кодек: MPEG Audio
Кодек/ID: 69
Частота дискретизации: 24.0 KHz
Каналов: 2 channels
Битрейт: 96.0 Kbps
Размер потока: 48.9 KiB (3%)
Ответить с цитированием
  (#6) Старый
Основатель форума
Отзывов: (494)
 
Аватар для Доктор ВОВАН
 
Сообщений: 9,173
Благодарностей: 62457
Регистрация: 07.11.2005
Адрес: Питер Russian Federation
Конфигурация компа:
Отправить сообщение для Доктор ВОВАН с помощью ICQ Отправить сообщение для Доктор ВОВАН с помощью Skype™
По умолчанию 15.11.2014, 23:53

Вам уже ответили - что битрейт маленький


[Для просмотра данной ссылки нужно ]
Ответить с цитированием
Этот участник поблагодарил(а) Доктор ВОВАН за это полезное сообщение:
  (#7) Старый
Отзывов: (0)
 
Сообщений: 4
Благодарностей: 1
Регистрация: 12.11.2014
Страна: Ukraine
Конфигурация компа:
Фото/видео:
По умолчанию 15.11.2014, 23:58

Ответил не в ту тему. Исправляюсь)

Это не вероятно!!! Помогло. В настройках видео взял максимум:
FPS - 120
Качество - 100
Спасибо большое!
Ответить с цитированием
Ответ

Социальные закладки


Здесь присутствуют: 1 (пользователей: 0 , гостей: 1)
 
Опции темы

Ваши права в разделе
Вы не можете создавать новые темы
Вы не можете отвечать в темах
Вы не можете прикреплять вложения
Вы не можете редактировать свои сообщения

BB коды Вкл.
Смайлы Вкл.
[IMG] код Вкл.
HTML код Выкл.
Trackbacks are Выкл.
Pingbacks are Выкл.
Refbacks are Выкл.


Похожие темы
Тема Автор Раздел Ответов Последнее сообщение
Bandicam и Рinnacle Studio 16 Vitaliy-Sh Для новичков 3 05.11.2013 02:27
Проблемы Pinnacle Studio 10 Захват VHS через плату Studio DC10+ aleks77 Pinnacle Studio 10 51 23.07.2007 13:28
Тормозит Pinnacle Studio и Studio Plus версии 10.0 $erg Pinnacle Studio 10 5 11.11.2006 22:34
Файл ReadMe для Pinnacle Studio и Studio Plus версии 10.0 Slava2 Pinnacle Studio 10 1 30.05.2006 19:35



Все использованные на сайте названия продуктов и торговые марки принадлежат их законным владельцам.
При перепечатке или ретрансляции материалов с сервера DrBOBAH.com ссылка на сайт обязательна!
SEO by vBSEO ©2011, Crawlability, Inc.1


Принимаем WebMoney Наша кнопка