pinnacle studio  

Вернуться   pinnacle studio > Софт > Прочие NLE
Прочие NLE Прочие программы для монтажа, компоузинга и DVD авторинга



Недвижимость в Йошкар-Оле
Ответ
 
LinkBack Опции темы
  (#1) Старый
Отзывов: (0)
 
Сообщений: 1
Благодарностей: 0
Регистрация: 22.04.2012
Страна: Ukraine
Конфигурация компа:
По умолчанию Кодирование видео в H.264 при помощи mencoder? - 22.04.2012, 23:40

Есть исходный большой matroska-файл (параметры в самом низу).
Требуется с минимальными потерями качества – а в идеале без оных! – перегнать его в формат H.264 при помощи пакета mencoder (файл предполагается скармливать Adobe Premiere 5.5 под монтаж)

Скрипт перекодировки:
"c:\Program Files (x86)\Sgi's Video Converter GUI\Mplayer\mencoder.exe" "e:\Видео\кино\Звездный десант (Starship Troopers) (1997) (8,8).mkv" -o "e:\Видео\кино\Звездный десант (Starship Troopers) (1997) (8,8).avi" -of lavf -lavfopts format=matroska -ovc lavc -lavcopts vcodec=libx264:vbitrate=7954:abitrate=384 -channels 6 -oac lavc -lavcopts acodec=ac3:abitrate=384

дает на выходе:
[libx264 @ 0304fcc0]broken ffmpeg default settings detected
[libx264 @ 0304fcc0]use an encoding preset (vpre)
Could not open codec.
FATAL: Cannot initialize video driver.


Кто виноват и что с ним делать?


Параметры исходника:
Video #1
ID : 1
Format : AVC
Format/Info : Advanced Video Codec
Format profile : High@L4.1
Format settings, CABAC : Yes
Format settings, ReFrames : 5 frames
Codec ID : V_MPEG4/ISO/AVC
Duration : 2h 9mn
Bit rate : 7 954 Kbps
Width : 1 280 pixels
Height : 692 pixels
Display aspect ratio : 1.850
Frame rate : 23.976 fps
Color space : YUV
Chroma subsampling : 4:2:0
Bit depth : 8 bits
Scan type : Progressive
Bits/(Pixel*Frame) : 0.375
Stream size : 7.05 GiB (93%)
Title : 1997.BDRip.720p
Writing library : x264 core 80 r1376M 3feaec2
Encoding settings : cabac=1 / ref=5 / deblock=1:-3:-3 / analyse=0x3:0x113 / me=hex / subme=9 / psy=1 / psy_rd=1.3:0.1 / mixed_ref=1 / me_range=16 / chroma_me=1 / trellis=2 / 8x8dct=1 / cqm=0 / deadzone=21,11 / fast_pskip=1 / chroma_qp_offset=-3 / threads=6 / sliced_threads=0 / nr=0 / decimate=1 / mbaff=0 / constrained_intra=0 / bframes=5 / b_pyramid=0 / b_adapt=2 / b_bias=0 / direct=1 / wpredb=1 / wpredp=2 / keyint=250 / keyint_min=25 / scenecut=40 / rc_lookahead=0 / rc=2pass / mbtree=0 / bitrate=7954 / ratetol=1.0 / qcomp=0.60 / qpmin=10 / qpmax=51 / qpstep=4 / cplxblur=20.0 / qblur=0.5 / vbv_maxrate=40000 / vbv_bufsize=30000 / ip_ratio=1.40 / pb_ratio=1.30 / aq=1:1.00
Language : English
Audio #2
ID : 2
Format : AC-3
Format/Info : Audio Coding 3
Mode extension : CM (complete main)
Codec ID : A_AC3
Duration : 2h 9mn
Bit rate mode : Constant
Bit rate : 384 Kbps
Channel(s) : 6 channels
Channel positions : Front: L C R, Side: L R, LFE
Sampling rate : 48.0 KHz
Bit depth : 16 bits
Compression mode : Lossy
Stream size : 356 MiB (5%)
Title : DUB
Language : Russian
Text #3
ID : 3
Format : UTF-8
Codec ID : S_TEXT/UTF8
Codec ID/Info : UTF-8 Plain Text
Title : русский
Language : Russian
Text #4
ID : 4
Format : UTF-8
Codec ID : S_TEXT/UTF8
Codec ID/Info : UTF-8 Plain Text
Title : английский
Ответить с цитированием
 
Ответ

Социальные закладки


Здесь присутствуют: 1 (пользователей: 0 , гостей: 1)
 
Опции темы

Ваши права в разделе
Вы не можете создавать новые темы
Вы не можете отвечать в темах
Вы не можете прикреплять вложения
Вы не можете редактировать свои сообщения

BB коды Вкл.
Смайлы Вкл.
[IMG] код Вкл.
HTML код Выкл.
Trackbacks are Выкл.
Pingbacks are Выкл.
Refbacks are Выкл.


Похожие темы
Тема Автор Раздел Ответов Последнее сообщение
Кодирование в MPEG4 ASP Alligator Для новичков 14 12.12.2011 19:13
оцифровка видео при помощи Sony DCR-DVD405 Андрюлик Для новичков 3 25.10.2009 11:31
Найти видео про работу врачей скорой помощи ledfort Для новичков 5 17.08.2009 23:36
двухпроходное кодирование One_Gans Для новичков 1 10.12.2008 13:42



Все использованные на сайте названия продуктов и торговые марки принадлежат их законным владельцам.
При перепечатке или ретрансляции материалов с сервера DrBOBAH.com ссылка на сайт обязательна!
SEO by vBSEO ©2011, Crawlability, Inc.1


Принимаем WebMoney Наша кнопка