pinnacle studio  

Вернуться   pinnacle studio > Pinnacle Studio 15, AVID STUDIO > Pinnacle Studio 15 Ultimate
Pinnacle Studio 15 Ultimate Все по новой Студии.



Недвижимость в Йошкар-Оле
Ответ
 
LinkBack Опции темы
  (#1) Старый
Отзывов: (0)
 
Аватар для KingsVideo
 
Сообщений: 34
Благодарностей: 23
Регистрация: 10.12.2005
Адрес: Запорожье Ukraine
Конфигурация компа:
Фото/видео:
Отправить сообщение для KingsVideo с помощью ICQ
По умолчанию Запись на Blu-Ray - 06.12.2011, 01:47

Такой вопрос, создаю образ Blu-Ray из проекта по времени 66 минут, студия выдает качество 64% с размером образа 10,2 гига (диск 25 гиг)... в чем проблема и сколько по времени должен вмещать Blu-Ray 25 гиговый со 100% качеством???


век живи - век учись
Ответить с цитированием
Этот участник поблагодарил(а) KingsVideo за это полезное сообщение:
 
  (#2) Старый
Отзывов: (0)
 
Аватар для Igor O
 
Сообщений: 26
Благодарностей: 19
Регистрация: 11.09.2008
Адрес: Екатеринбург Russian Federation
Конфигурация компа:
Фото/видео:
Отправить сообщение для Igor O с помощью ICQ
По умолчанию 07.12.2011, 09:33

Это максимальное качество с которым Cтудия может вывести диск blu-ray. Сам с этим столкнулся две недели назад. Очень жаль...
Ответить с цитированием
Этот участник поблагодарил(а) Igor O за это полезное сообщение:
  (#3) Старый
Отзывов: (0)
 
Аватар для KingsVideo
 
Сообщений: 34
Благодарностей: 23
Регистрация: 10.12.2005
Адрес: Запорожье Ukraine
Конфигурация компа:
Фото/видео:
Отправить сообщение для KingsVideo с помощью ICQ
По умолчанию 07.12.2011, 12:42

Понял, спасибо. Игорь а Вы чем выводите на Blu-Ray?


век живи - век учись
Ответить с цитированием
  (#4) Старый
Отзывов: (0)
 
Аватар для Игорь М
 
Сообщений: 1,819
Благодарностей: 3386
Регистрация: 26.03.2008
Адрес: Московская обл. Russian Federation
Конфигурация компа:
Фото/видео:
По умолчанию 07.12.2011, 15:00

А если в файл вывести?И далее любой прогой авторинга....
Ответить с цитированием
  (#5) Старый
EXTREME USER и ПОЧЕТНЫЙ СПОНСОР

Отзывов: (0)
 
Сообщений: 19
Благодарностей: 4
Регистрация: 16.11.2008
Адрес: Киев Ukraine
Конфигурация компа:
Фото/видео:
По умолчанию 21.12.2011, 22:35

Не соглашусь с Igor O. Создаю Blu-Ray в Студии15, с битрейтом 15Мбит, диск 17Гиг (продолжительность 2ч24мин) без проблем, но долго. Только вывод всегда делаю в файл, а затем с Нерро записываю. Так что надо копать, почему больше 10Гиг не создает. У меня что-то похожее было, как ни странно вылечилось путем апгрейда видеокарты на более мощную.

Глянул вашу конфигурацию, к видеокарте вряд ли получиться придраться, куда уж мощнее)
Ответить с цитированием
  (#6) Старый
15 HARD 3

Отзывов: (0)
 
Сообщений: 18
Благодарностей: 3
Регистрация: 22.12.2005
Страна: Russian Federation
Конфигурация компа:
По умолчанию 21.02.2012, 10:52

Цитата:
Сообщение от voVap
Создаю Blu-Ray в Студии15, с битрейтом 15Мбит, диск 17Гиг (продолжительность 2ч24мин) без проблем, но долго. Только вывод всегда делаю в файл, а затем с Нерро записываю.
А можно поподробней какое видео обробатываете и потом какая версия Нерро и какое качество как долго рендерит
Ответить с цитированием
  (#7) Старый
EXTREME USER и ПОЧЕТНЫЙ СПОНСОР

Отзывов: (0)
 
Сообщений: 19
Благодарностей: 4
Регистрация: 16.11.2008
Адрес: Киев Ukraine
Конфигурация компа:
Фото/видео:
По умолчанию 21.02.2012, 22:19

Видео с камеры SONY CX550, вот параметры 19-ти секундного клипа:
Полное имя : D:\Captured Video\HDTV\20110817191820.m2ts
Формат : BDAV
Формат/Информация : Blu-ray Video
Размер файла : 40,3 Мбайт
Продолжительность : 19 с.
Режим общего битрейта : Переменный
Общий поток : 17,1 Мбит/сек
Максимальный общий битрейт : 18,0 Мбит/сек

Видео
Идентификатор : 4113 (0x1011)
Идентификатор меню : 1 (0x1)
Формат : AVC
Формат/Информация : Advanced Video Codec
Профиль формата : High@L4.0
Параметр CABAC формата : Да
Параметр ReFrames формата : 2 кадра
Параметр GOP формата : M=2, N=13
Идентификатор кодека : 27
Продолжительность : 19 с.
Вид битрейта : Переменный
Битрейт : 16,0 Мбит/сек
Ширина : 1920 пикселей
Высота : 1080 пикселей
Соотношение сторон : 16:9
Частота кадров : 25,000 кадров/сек
Цветовое пространство : YUV
Субдискретизация насыщенности : 4:2:0
Битовая глубина : 8 бит
Тип развёртки : Чересстрочная
Порядок развёртки : Верхнее поле первое
Бит/(Пиксели*Кадры) : 0.309
Размер потока : 37,5 Мбайт (93%)

Аудио
Идентификатор : 4352 (0x1100)
Идентификатор меню : 1 (0x1)
Формат : AC-3
Формат/Информация : Audio Coding 3
Расширение режима : CM (complete main)
Идентификатор кодека : 129
Продолжительность : 19 с.
Вид битрейта : Постоянный
Битрейт : 448 Кбит/сек
Каналы : 6 каналов
Расположение каналов : Front: L C R, Side: L R, LFE
Частота : 48,0 КГц
Битовая глубина : 16 бит
Метод сжатия : С потерями
Задержка видео : -80 мс.
Размер потока : 1,06 Мбайт (3%)

Версия NERO 10.2.11000.12.100. Качество, после монтажа в Студии 15 и вывода, супер!
Ответить с цитированием
Эти 2 пользователей(ля) поблагодарили voVap за это полезное сообщение:
  (#8) Старый
15 HARD 3

Отзывов: (0)
 
Сообщений: 18
Благодарностей: 3
Регистрация: 22.12.2005
Страна: Russian Federation
Конфигурация компа:
По умолчанию 22.02.2012, 10:16

voVap а свадьбы или чтото подобное делали с обработкой конечный результат клиентам отдавали и как долго студия 15 рендерит такой 2х часовой проект
Ответить с цитированием
  (#9) Старый
EXTREME USER и ПОЧЕТНЫЙ СПОНСОР

Отзывов: (0)
 
Сообщений: 19
Благодарностей: 4
Регистрация: 16.11.2008
Адрес: Киев Ukraine
Конфигурация компа:
Фото/видео:
По умолчанию 22.02.2012, 13:01

Домашнее видео, спортивное видео, использую и темы, и переходы разные, и титры, и меню. Альфа каналы не применял пока. Время точно не скажу, но после полуночи запускал на кодирование и к утру уже было готово.
Ответить с цитированием
  (#10) Старый


Отзывов: (8)
 
Аватар для Маклауд
 
Сообщений: 6,967
Благодарностей: 11867
Регистрация: 08.11.2005
Страна: Russian Federation
Конфигурация компа:
По умолчанию 23.02.2012, 08:12

Цитата:
Сообщение от voVap Посмотреть сообщение
Не соглашусь с Igor O. Создаю Blu-Ray в Студии15, с битрейтом 15Мбит, диск 17Гиг (продолжительность 2ч24мин) ...
Так что надо копать, почему больше 10Гиг не создает.
С чем именно не соглашаетесь? У вас 17ГБ на 2,5 часа видео при достаточно низком битрейте (какое качество показывает Студия?), а у топикстартера читаем:
Цитата:
Сообщение от KingsVideo Посмотреть сообщение
... Blu-Ray из проекта по времени 66 минут, студия выдает качество 64% с размером образа 10,2 гига...
И потому как объём зависит только от длительности и битрейта, то копать тут больше некуда - Студия не создаёт диски с битрейтом более 25000kbps, а при таком битрейте часовое видео больше 10ГБ и не займёт.
Ответить с цитированием
Ответ

Социальные закладки


Здесь присутствуют: 1 (пользователей: 0 , гостей: 1)
 
Опции темы

Ваши права в разделе
Вы не можете создавать новые темы
Вы не можете отвечать в темах
Вы не можете прикреплять вложения
Вы не можете редактировать свои сообщения

BB коды Вкл.
Смайлы Вкл.
[IMG] код Вкл.
HTML код Выкл.
Trackbacks are Выкл.
Pingbacks are Выкл.
Refbacks are Выкл.


Похожие темы
Тема Автор Раздел Ответов Последнее сообщение
Запись CD DVD Andre-129 Программы 10 26.04.2011 23:18
Запись DVD-R в win 7 filipp Вывод фильма 25 26.01.2011 06:20
Запись CD audio Andre-129 Для новичков 1 14.10.2009 00:29
запись на BD vbakarev Для новичков 0 15.04.2008 20:28



Все использованные на сайте названия продуктов и торговые марки принадлежат их законным владельцам.
При перепечатке или ретрансляции материалов с сервера DrBOBAH.com ссылка на сайт обязательна!
SEO by vBSEO ©2011, Crawlability, Inc.1


Принимаем WebMoney Наша кнопка