pinnacle studio  

Вернуться   pinnacle studio > Информационный раздел > Для новичков
Для новичков Просьба новичкам задавать вопросы в этом разделе - Тут вопросы будут просматриваться модерами и переноситься в соответствущие разделы. Раздел является ОПЕРАТИВНЫМ!!!!!!



Недвижимость в Йошкар-Оле
Ответ
 
LinkBack Опции темы
  (#1) Старый
Отзывов: (0)
 
Сообщений: 3
Благодарностей: 0
Регистрация: 27.09.2010
Страна: Russian Federation
Конфигурация компа:
Фото/видео:
По умолчанию 27.09.2010, 12:34

Вообщем, дело состоит в следующем. Делаю сцену для создания amv через 14 студию. Всё идёт нормально, в конце есть момент, где я наложил текст на видео. И когда я наконец делаю вывод фильма, именно в тех моментах, где появляются субтитры, звук начинает "зажёвываться"и происходит полный рассинхрон видео-ряда и аудио. Если что, вот ссылка на видео -
Скрытый текст (вы должны зарегистрироваться или войти под своим логином):
У вас нет прав чтобы видеть скрытый текст, содержащейся здесь.
Добавлю, что во время монтажа всё идёт нормально, только когда происходит кодировка в видеофайл, начинается эта проблема... Помогите, пожалуйста.

ссылки скрываем - тегом HIDE
Tigris

[Для просмотра данной ссылки нужно ]


Простите, да...

Последний раз редактировалось Tigris; 27.09.2010 в 22:49. Причина: теги, убрана цитата не нужная
Ответить с цитированием
 
  (#2) Старый
Photo

Отзывов: (7)
 
Аватар для Nike
 
Сообщений: 3,927
Благодарностей: 12763
Регистрация: 06.03.2006
Адрес: 31 Russian Federation
Конфигурация компа:
Фото/видео:
Отправить сообщение для Nike с помощью ICQ Отправить сообщение для Nike с помощью Skype™
По умолчанию 27.09.2010, 22:25

- Какие исходники в проекте (video\audio)?
- В какой формат вывод?


-------------------------------
Ответить с цитированием
Этот участник поблагодарил(а) Nike за это полезное сообщение:
  (#3) Старый
Отзывов: (0)
 
Сообщений: 3
Благодарностей: 0
Регистрация: 27.09.2010
Страна: Russian Federation
Конфигурация компа:
Фото/видео:
По умолчанию 28.09.2010, 06:15

Цитата:
Format : AVI
Format/Info : Audio Video Interleave
File size : 182 MiB
Duration : 24mn 39s
Overall bit rate : 1 033 Kbps
Writing library : This file was made by AviUtl 0.99.

Video
ID : 0
Format : MPEG-4 Visual
Format profile : Advanced Simple@L5
Format settings, BVOP : Yes
Format settings, QPel : Yes
Format settings, GMC : No warppoints
Format settings, Matrix : Default (MPEG)
Muxing mode : Packed bitstream
Codec ID : XVID
Codec ID/Hint : XviD
Duration : 24mn 39s
Bit rate : 832 Kbps
Width : 640 pixels
Height : 480 pixels
Display aspect ratio : 4:3
Frame rate : 23.976 fps
Color space : YUV
Chroma subsampling : 4:2:0
Bit depth : 8 bits
Scan type : Progressive
Bits/(Pixel*Frame) : 0.113
Stream size : 147 MiB (81%)
Writing library : XviD 1.1.2 (UTC 2006-11-01)

Audio
ID : 1
Format : MPEG Audio
Format version : Version 1
Format profile : Layer 3
Mode : Joint stereo
Codec ID : 55
Codec ID/Hint : MP3
Duration : 24mn 39s
Bit rate mode : Constant
Bit rate : 192 Kbps
Channel(s) : 2 channels
Sampling rate : 48.0 KHz
Stream size : 33.9 MiB (19%)
Alignment : Aligned on interleaves
Interleave, duration : 48 ms (1.15 video frame)
Writing library : LAME3.93
Переделываю тоже в avi, сделал в mpeg просто для веса более меньшего. И кстати, попутно ещё одну проблему обнаружил. Чёрные полосы по бокам проекта. Причём, я пробовал эффект масштабирования использовать, он помогает, но в те отрезки, где кончается сцена и начинается новая, буквально на секунду, они вновь появляются =о= Немного портит впечатление. Как эти полосы убрать?
Ответить с цитированием
  (#4) Старый
ДОБРЫЙ
Отзывов: (7)
 
Аватар для Fantast
 
Сообщений: 2,399
Благодарностей: 15342
Регистрация: 08.01.2006
Адрес: Екатеринбург Russian Federation
Конфигурация компа:
Фото/видео:
По умолчанию 28.09.2010, 06:54

[Для просмотра данной ссылки нужно ], У Вас исходник не очень "удобен" для Студии.Его надо перед монтажём конвертировать в другой формат. Можно средствами Студии. Кодеком MJPEG. После монтажа выводите видео в нужный Вам формат.
Ответить с цитированием
Этот участник поблагодарил(а) Fantast за это полезное сообщение:
  (#5) Старый
Отзывов: (0)
 
Сообщений: 3
Благодарностей: 0
Регистрация: 27.09.2010
Страна: Russian Federation
Конфигурация компа:
Фото/видео:
По умолчанию 28.09.2010, 08:46

Fantast
Это поможет в случае с полосами или сабами, или же и с тем и с тем? Заранее, спасибо)
Ответить с цитированием
Ответ

Социальные закладки


Здесь присутствуют: 1 (пользователей: 0 , гостей: 1)
 
Опции темы

Ваши права в разделе
Вы не можете создавать новые темы
Вы не можете отвечать в темах
Вы не можете прикреплять вложения
Вы не можете редактировать свои сообщения

BB коды Вкл.
Смайлы Вкл.
[IMG] код Вкл.
HTML код Выкл.
Trackbacks are Выкл.
Pingbacks are Выкл.
Refbacks are Выкл.


Похожие темы
Тема Автор Раздел Ответов Последнее сообщение
Проблема со звуком Пётро Захват и импорт видео, звука 42 29.08.2013 22:15
проблема со звуком Алапаевск Для новичков 6 14.07.2010 05:14
Проблема со звуком и видео в 11 студии Andrey_bosch Для новичков 8 11.02.2008 10:53



Все использованные на сайте названия продуктов и торговые марки принадлежат их законным владельцам.
При перепечатке или ретрансляции материалов с сервера DrBOBAH.com ссылка на сайт обязательна!
SEO by vBSEO ©2011, Crawlability, Inc.1


Принимаем WebMoney Наша кнопка