pinnacle studio  

Вернуться   pinnacle studio > Софт > Прочие NLE > Sony


Недвижимость в Йошкар-Оле
Ответ
 
LinkBack Опции темы
  (#1) Старый
Отзывов: (0)
 
Сообщений: 21
Благодарностей: 4
Регистрация: 05.01.2012
Страна: Russian Federation
Конфигурация компа:
По умолчанию Как правильно делать ре́ндеринг (rendering)? - 07.11.2013, 23:46

Не пинайте сильно за вопрос уровня начинающих - насколько я правильно понимаю при рендеринге проэкта если входной видеопоток совпадает с выходным, то видео пересчитывается только в местах переходов, видеоэффэктов и т.д., в остальном - просто копируется. У меня есть видео, снятое бюджетной камерой Canon Legriya HF R-306 - (HDV 1080-50i (1440x1080; 25,000 fps). Пробовал выводить в SONY VEGAS-10 в разнейших форматах (MPEG-2, Sony AVC, H264\MPEG-4 AVC codeck) с точным соблюдением параметров - и везде имхо идет полный пересчет (сужу по времени процесса и по результирующему видео - на стопкадрах заметно некоторое замыливание картинки и уменьшение детализации). Отсюда вопрос - как правильно рендерить, чтоб видео не пережималось? Может нужный кодек не установлен?

Путем проб выяснил, что наилучший результат как по времени кодировки так и по качеству дает Sony AVC\MVC c темплейтом AVCHD 1440x1080-50i, mediainfo исходника и результирующего файлов почти идентичны. Хотя картинка все-таки у результата чуть хуже на стопкадрах... Что касается MPEG-2 с темплейтом Blu-ray 1440x1080-50i, 8 Mbps video stream, то хоть время кодировки и сопоставимое, качество уступает значительно, плюс присутствует раздвоение изображения - с чего это может быть?
Ответить с цитированием
 
  (#2) Старый



Отзывов: (2)
 
Аватар для AFateev
 
Сообщений: 1,391
Благодарностей: 4859
Регистрация: 30.01.2008
Адрес: Русь Russian Federation
Конфигурация компа:
Фото/видео:
По умолчанию 08.11.2013, 01:10

Цитата:
Сообщение от cambit Посмотреть сообщение
MPEG-2 с темплейтом Blu-ray 1440x1080-50i, 8 Mbps video stream, то хоть время кодировки и сопоставимое, качество уступает значительно,
А что, разве MediaInfo показывает поток в 8 Mbps ?
Найдите в MediaInfo строку "Битрейт: 44,3 Мбит/сек" (у Вас будет другое значение), и задайте такой же битрейт для выходного файла.
((не пересчитывать исходный файл умеют далеко не все редакторы))
Цитата:
Сообщение от cambit Посмотреть сообщение
плюс присутствует раздвоение изображения - с чего это может быть?
Это Интерлейс! Тем более, что Вы из прогрессивного видео 25fps (кадров в секунду) пытаетесь сделать (рендер) 50 fps, да еще и интерлейсных.
==============
Выбирайте пресет рендера наиболее близкий к вашим исходникам (см. Mediainfo) , далее внесите изменения в пресет, например так:
исходник ================пресет
[Для просмотра данной ссылки нужно ] =======[Для просмотра данной ссылки нужно ]
================
Я только не пойму почему 25fps ? Mediainfo показывает 24 fps в вашем файле.....
Да и разрешение в пикселах у исходника 1920х1080.....!?
Ответить с цитированием
Эти 2 пользователей(ля) поблагодарили AFateev за это полезное сообщение:
  (#3) Старый
Отзывов: (0)
 
Сообщений: 21
Благодарностей: 4
Регистрация: 05.01.2012
Страна: Russian Federation
Конфигурация компа:
По умолчанию 08.11.2013, 15:03

Нет, видео под водой будет не основное, а как небольшие вставки, основной контент снят как раз 1440x1080-50i 25 кадров в сек. Медиаинфо выложу чуть позже, как домой попаду, в настройках камеры написано что поток 12 Мб\сек.

Добавлено через 4 часа 40 минут:

Вот медиаинфа исходника:
Код:
Общее
Идентификатор                    : 0 (0x0)
Полное имя                       : D:\Egypt\00065.MTS
Формат                           : BDAV
Формат/Информация                : Blu-ray Video
Размер файла                     : 26,2 Мбайт
Продолжительность                : 17 с.
Режим общего битрейта            : Переменный
Общий поток                      : 12,7 Мбит/сек
Максимальный общий битрейт       : 13,7 Мбит/сек

Видео
Идентификатор                    : 4113 (0x1011)
Идентификатор меню               : 1 (0x1)
Формат                           : AVC
Формат/Информация                : Advanced Video Codec
Профиль формата                  : High@L4.0
Параметр CABAC формата           : Да
Параметр ReFrames формата        : 2 кадра
Параметр GOP формата             : M=3, N=12
Идентификатор кодека             : 27
Продолжительность                : 17 с.
Вид битрейта                     : Переменный
Битрейт                          : 12,0 Мбит/сек
Максимальный битрейт             : 12,0 Мбит/сек
Ширина                           : 1440 пикселей
Высота                           : 1080 пикселей
Соотношение сторон               : 16:9
Частота кадров                   : 25,000 кадров/сек
Цветовое пространство            : YUV
Субдискретизация насыщенности    : 4:2:0
Битовая глубина                  : 8 бит
Тип развёртки                    : Чересстрочная
Порядок развёртки                : Верхнее поле первое
Бит/(Пиксели*Кадры)              : 0.308
Размер потока                    : 24,5 Мбайт (94%)

Последний раз редактировалось cambit; 08.11.2013 в 15:03. Причина: Добавлено сообщение
Ответить с цитированием
  (#4) Старый
Отзывов: (0)
 
Сообщений: 6
Благодарностей: 14
Регистрация: 08.09.2009
Адрес: СПб Russian Federation
Конфигурация компа:
Фото/видео:
По умолчанию 15.11.2014, 22:31

Исходное видео -
Video: MPEG4 Video (H264) 1920x1080 25fps [MPEG4 Video (H264) (AVC (H.264), Baseline Profile, Level 5.0, 1920x1080, 25.000 fps)]
Audio: PCM 48000Hz stereo 1536kbps [PCM (PCM, 48.0 kHz, 2 chn, 16 bit, 1536.0 kbit/s)]
Снято камерой Canon550d формат расширения файла mov
Вопрос - в какой формат лучше провести рендеринг без потери качества исходного материала
Спасибо
Ответить с цитированием
  (#5) Старый
Победитель Конкурса 2015

Отзывов: (0)
 
Аватар для Evгений
 
Сообщений: 798
Благодарностей: 6518
Регистрация: 06.10.2008
Адрес: 55 Russian Federation
Конфигурация компа:
Фото/видео:
Отправить сообщение для Evгений с помощью Skype™
По умолчанию 16.11.2014, 21:01

в формат H264 и выводите
Скрытый текст (вы должны войти под своим логином или зарегистрироваться и иметь 1 сообщение(ий)):
У вас нет прав чтобы видеть скрытый текст, содержащейся здесь.


[Для просмотра данной ссылки нужно ]
Ответить с цитированием
Этот участник поблагодарил(а) Evгений за это полезное сообщение:
  (#6) Старый
Отзывов: (0)
 
Сообщений: 27
Благодарностей: 3
Регистрация: 14.03.2006
Страна: Russian Federation
Конфигурация компа:
По умолчанию 25.12.2014, 13:18

Здравствуйте! нужна Ваша помощь
раньше я снимал с видеокамеры с разрешением 1080/50i потом монтировал в Сони вегас и выводил в Mpeg2 для Архитекта (DVD) результат был приемлемый
теперь взял другую камеру на которую снял с разрешением MP4 1080p/50 но при выводе в Сони Вегасе в Mpeg2 результат оказался значительно хуже чем раньше.
Не подскажите в чем может быть проблема? какие настройки проекта должны быть и свойства вывода в Mpeg2?
Ответить с цитированием
  (#7) Старый
Основатель форума
Отзывов: (494)
 
Аватар для Доктор ВОВАН
 
Сообщений: 9,178
Благодарностей: 62464
Регистрация: 07.11.2005
Адрес: Питер Russian Federation
Конфигурация компа:
Отправить сообщение для Доктор ВОВАН с помощью ICQ Отправить сообщение для Доктор ВОВАН с помощью Skype™
По умолчанию 25.12.2014, 13:47

полное описание исходников и во что выводили.
мп4 - формат не для редактирования. Советую конвертнуть


[Для просмотра данной ссылки нужно ]
Ответить с цитированием
  (#8) Старый
Отзывов: (0)
 
Сообщений: 27
Благодарностей: 3
Регистрация: 14.03.2006
Страна: Russian Federation
Конфигурация компа:
По умолчанию 25.12.2014, 21:31

данные видеофайла

Видео
Идентификатор : 1
Формат : AVC
Формат/Информация : Advanced Video Codec
Профиль формата : High@L4.2
Параметр CABAC формата : Да
Параметр ReFrames формата : 2 кадра
Идентификатор кодека : avc1
Идентификатор кодека/Информация : Advanced Video Coding
Продолжительность : 2 м. 17 с.
Вид битрейта : Переменный
Битрейт : 45,0 Мбит/сек
Максимальный битрейт : 49,2 Мбит/сек
Ширина : 1920 пикселей
Высота : 1080 пикселей
Соотношение сторон : 16:9
Режим частоты кадров : Постоянный
Частота кадров : 50,000 кадров/сек
Цветовое пространство : YUV
Субдискретизация насыщенности : 4:2:0
Битовая глубина : 8 бит
Тип развёртки : Прогрессивная
Бит/(Пиксели*Кадры) : 0.434
Размер потока : 737 Мбайт (100%)
Язык : Russian
Дата кодирования : UTC 2014-12-20 16:14:40
Дата пометки : UTC 2014-12-20 16:14:40
Основные цвета : BT.709
Характеристики трансфера : BT.709
Коэффициенты матрицы : BT.709
colour_range : Limited

Аудио
Идентификатор : 2
Формат : AAC
Формат/Информация : Advanced Audio Codec
Профиль формата : LC
Идентификатор кодека : 40
Продолжительность : 2 м. 17 с.
Продолжительность оригинала : 2 м. 17 с.
Вид битрейта : Постоянный
Битрейт : 128 Кбит/сек
Каналы : 2 канала
Расположение каналов : Front: L R
Частота : 48,0 КГц
Метод сжатия : С потерями
Размер потока : 2,05 Мбайт (0%)
Размер потока оригинала : 2,05 Мбайт (0%)
Язык : Russian
Дата кодирования : UTC 2014-12-20 16:14:40
Дата пометки : UTC 2014-12-20 16:14:40

свойства проекта и данный вывода

[Для просмотра данной ссылки нужно ]

Видеокамера Panasonic HC-V730
Причем в инструкции к данной видеокамере написано: формат записи [MP4/iFrame] - [1080/50M]/[1080/28M] и [720] — режимы записи, предназначенные для воспроизведения и редактирования на ПК
Ответить с цитированием
  (#9) Старый

Отзывов: (2)
 
Аватар для Проходчик
 
Сообщений: 241
Благодарностей: 591
Регистрация: 21.05.2009
Адрес: Ровеньки Ukraine
Конфигурация компа:
Фото/видео:
Отправить сообщение для Проходчик с помощью Skype™
По умолчанию 26.12.2014, 22:31

Увы, Вегас, как и большинство монтажек, не очень качественно нарезает интерлейс из прогрессивного видео, да если ещё в кучу и скалирование FullHD->SD - результат предсказуемо будет похож на УГ....Если нужен DVD поток, если я правильно понял, то в настройках рендера нужно изменить "Сначала нижние" на , наверно, "Прогрессив" - не могу сказать точно, что там будет написано, это на совести русификаторов. Архитект под этот поток тоже нужно будет подстраивать -по дефолту у него интерлейсный проект...


[Для просмотра данной ссылки нужно ]
Ответить с цитированием
Эти 5 пользователей(ля) поблагодарили Проходчик за это полезное сообщение:
Скрыть список поблагодаривших

alekcey2 (27.12.2014), atas206 (28.12.2014), Kramarow (27.12.2014), VIKBOR (27.12.2014), Доктор ВОВАН (26.12.2014)
  (#10) Старый
Отзывов: (0)
 
Сообщений: 4
Благодарностей: 0
Регистрация: 27.01.2015
Страна: Russian Federation
Конфигурация компа:
По умолчанию 27.01.2015, 13:59

Когда разрешение и фрэймрейт исходного файла и конечного совпадают, Adobe Premiere делает рендер очень быстро. Vegas почему-то всё делает одинаково медленно, внезависимости от совпадения параметров. Есть ли способ как-то экономить время (как с премьером) или без вариантов?
Ответить с цитированием
Ответ

Социальные закладки


Здесь присутствуют: 1 (пользователей: 0 , гостей: 1)
 
Опции темы

Ваши права в разделе
Вы не можете создавать новые темы
Вы не можете отвечать в темах
Вы не можете прикреплять вложения
Вы не можете редактировать свои сообщения

BB коды Вкл.
Смайлы Вкл.
[IMG] код Вкл.
HTML код Выкл.
Trackbacks are Выкл.
Pingbacks are Выкл.
Refbacks are Выкл.


Похожие темы
Тема Автор Раздел Ответов Последнее сообщение
Как правильно делать DVD меню в Avid Razor72 Avid Technology 7 05.10.2010 13:04
Smart Rendering при монтаже DV dss2005 Студия и все что с ней связано 5 30.09.2010 14:23
Rendering video jenor Sony 26 20.10.2009 12:06
Как делать правильно просчёт? Oksana Pinnacle Studio 11 4 05.12.2008 11:55
Не видятся кодеки Rendering Format 4.51 Pash0k Canopus 2 10.12.2007 16:20



Все использованные на сайте названия продуктов и торговые марки принадлежат их законным владельцам.
При перепечатке или ретрансляции материалов с сервера DrBOBAH.com ссылка на сайт обязательна!
SEO by vBSEO ©2011, Crawlability, Inc.1


Принимаем WebMoney Наша кнопка