pinnacle studio  

Вернуться   pinnacle studio > Pinnacle Studio (старые версии) > Старые версии Pinnacle Studio 9,10,11,12,14 > Pinnacle Studio 10
Pinnacle Studio 10 Проблемы в десятой Студии и их решение



Ответ
 
LinkBack Опции темы
  (#71) Старый
15 HARD 3

Отзывов: (0)
 
Аватар для Alfa2908
 
Сообщений: 439
Благодарностей: 591
Регистрация: 01.10.2011
Страна: Russian Federation
Конфигурация компа:
Фото/видео:
По умолчанию 27.02.2017, 14:10

Цитата:
Сообщение от Наталья Э Посмотреть сообщение
Параметры захвата.
Шаблоны – DV
Полное DV качество.
Ширина- 720
Высота -480
Параметры проекта:
Формат проекта. PAL Standart
Текущий- 720 / 576,25 кадр
4:3,с черодованием.
Ваша информация наводит на мысль, что отснято в ntsc, а параметр проекта выбран pal стандартная, могу ошибаться, но информация показывает это.
Ответить с цитированием
 
  (#72) Старый
Основатель форума
Отзывов: (498)
 
Аватар для Доктор ВОВАН
 
Сообщений: 9,508
Благодарностей: 63196
Регистрация: 07.11.2005
Адрес: Питер Russian Federation
Конфигурация компа:
Отправить сообщение для Доктор ВОВАН с помощью ICQ Отправить сообщение для Доктор ВОВАН с помощью Skype™
По умолчанию 27.02.2017, 16:56

[Для просмотра данной ссылки нужно ], Все сообщения будут удаляться пока не выполните то что я написал выше. Без этого нет смысла разбираться.


[Для просмотра данной ссылки нужно ]
Ответить с цитированием
  (#73) Старый
Отзывов: (0)
 
Аватар для Наталья Э
 
Сообщений: 31
Благодарностей: 1
Регистрация: 28.10.2008
Адрес: Костанай Kazakhstan
Конфигурация компа:
Фото/видео:
Отправить сообщение для Наталья Э с помощью Skype™
По умолчанию 10.03.2017, 22:41

Полное имя : G:\ВИДЕО \САД\22\VIDEO_TS\VTS_01_1.VOB
Формат : MPEG-PS
Размер файла : 9,26 Мбайт
Продолжительность : 8 с. 775 мс.
Режим общего битрейта : Переменный
Общий поток : 8854 Кбит/сек
Идентификатор : 224 (0xE0)
Формат : MPEG Video
Версия формата : Version 2
Профиль формата : Main@Main
Параметр BVOP формата : Да
Параметр матрицы формата : Выборочная
Параметр GOP формата : M=3, N=15
Продолжительность : 8 с. 775 мс.
Вид битрейта : Переменный
Битрейт : 8500 Кбит/сек
Ширина : 720 пикселей
Высота : 480 пикселей
Соотношение сторон : 4:3
Частота кадров : 29,970 (30000/1001) кадров/сек
Стандарт вещания : NTSC
Цветовое пространство : YUV
Субдискретизация насыщенности : 4:2:0
Битовая глубина : 8 бит
Тип развёртки : Прогрессивная
Метод сжатия : С потерями
Бит/(Пиксели*Кадры) : 0.821
Временной код первого кадра : 00:00:00:00
Оригинал временного кода : Group of pictures header
GOP, открыто/закрыто : Открыто
GOP, открыто/закрыто на первом кадре : Закрыто
Размер потока : 8,88 Мбайт (96%)
Основные цвета : BT.601 NTSC
Характеристики трансфера : BT.601
Коэффициенты матрицы : BT.601
Идентификатор : 189 (0xBD)-128 (0x80)
Формат : AC-3
Формат/Информация : Audio Coding 3
Расширение режима : CM (complete main)
Параметр Endianness формата : Big
Режим смешивания : DVD-Video
Продолжительность : 8 с. 288 мс.
Вид битрейта : Постоянный
Битрейт : 192 Кбит/сек
Каналы : 2 канала
Расположение каналов : Front: L R
Частота : 48,0 КГц
Частота кадров : 31,250 кадров/сек (1536 spf)
Битовая глубина : 16 бит
Метод сжатия : С потерями
Размер потока : 194 Кбайт (2%)

Полное имя : G:\ВИДЕО САД\8 марта 2017год\гномы\Видео 1.avi
Формат : AVI
Формат/Информация : Audio Video Interleave
Коммерческое название : DVCPRO
Профиль формата : OpenDML
Размер файла : 8,35 Гбайт
Продолжительность : 39 м. 24 с.
Режим общего битрейта : Постоянный
Общий поток : 30,3 Мбит/сек
IsTruncated : Yes

Идентификатор : 0
Формат : DV
Коммерческое название : DVCPRO
Идентификатор кодека : dvsd
Идентификатор кодека/Подсказка : Sony
Продолжительность : 39 м. 24 с.
Вид битрейта : Постоянный
Битрейт : 24,4 Мбит/сек
Закодированный битрейт : 28,8 Мбит/сек
Ширина : 720 пикселей
Высота : 576 пикселей
Соотношение сторон : 4:3
Режим частоты кадров : Постоянный
Частота кадров : 25,000 кадров/сек
Стандарт вещания : PAL
Цветовое пространство : YUV
Субдискретизация насыщенности : 4:2:0
Битовая глубина : 8 бит
Тип развёртки : Чересстрочная
Порядок развёртки : Нижнее поле первое
Метод сжатия : С потерями
Бит/(Пиксели*Кадры) : 2.357
Временной код первого кадра : 00:01:00:02
Оригинал временного кода : Subcode time code
Размер потока : 7,93 Гбайт (95%)
Настройки программы : ae mode=full automatic / wb mode=automatic / white balance= / fcm=manual focus

Идентификатор : 1
Формат : PCM
Параметр Endianness формата : Little
Параметр Sign формата : Signed
Идентификатор кодека : 1
Продолжительность : 39 м. 24 с.
Вид битрейта : Постоянный
Битрейт : 1536 Кбит/сек
Каналы : 2 канала
Частота : 48,0 КГц
Битовая глубина : 16 бит
Размер потока : 433 Мбайт (5%)
Выравнивание : Соединение по промежуткам
Продолжительность промежутка : 44 мс. (1,10 видеокадр)
Ответить с цитированием
  (#74) Старый
Основатель форума
Отзывов: (498)
 
Аватар для Доктор ВОВАН
 
Сообщений: 9,508
Благодарностей: 63196
Регистрация: 07.11.2005
Адрес: Питер Russian Federation
Конфигурация компа:
Отправить сообщение для Доктор ВОВАН с помощью ICQ Отправить сообщение для Доктор ВОВАН с помощью Skype™
По умолчанию 10.03.2017, 22:59

Частота кадров : 29,970
Частота кадров : 25,000 кадров/сек
НУ и что Вы хотите?


[Для просмотра данной ссылки нужно ]
Ответить с цитированием
Этот участник поблагодарил(а) Доктор ВОВАН за это полезное сообщение:
  (#75) Старый
Отзывов: (0)
 
Аватар для Наталья Э
 
Сообщений: 31
Благодарностей: 1
Регистрация: 28.10.2008
Адрес: Костанай Kazakhstan
Конфигурация компа:
Фото/видео:
Отправить сообщение для Наталья Э с помощью Skype™
По умолчанию 10.03.2017, 23:24

Скажи пожалуйста,что не так в этих параметрах...? я не пойму ни чего .Мне нужно ,ч бы (после монтажа) видео на экране телевизора не было с чёрными полосками по бокам.Что нужно установить в настойках ...студии.?
Ответить с цитированием
  (#76) Старый
Photo

Отзывов: (7)
 
Аватар для Nike
 
Сообщений: 3,923
Благодарностей: 12769
Регистрация: 06.03.2006
Адрес: 31 Russian Federation
Конфигурация компа:
Фото/видео:
Отправить сообщение для Nike с помощью ICQ Отправить сообщение для Nike с помощью Skype™
По умолчанию 11.03.2017, 00:28

Цитата:
Сообщение от Наталья Э Посмотреть сообщение
Полное имя : G:\ВИДЕО \САД\22\VIDEO_TS\VTS_01_1.VOB
Формат : MPEG-PS

Ширина : 720 пикселей
Высота : 480 пикселей
Соотношение сторон : 4:3
Частота кадров : 29,970 (30000/1001) кадров/сек
Стандарт вещания : NTSC
Это американский стандарт вещания! В России, да и в Кустанае тоже (и в кр.партизане и на кск) =)) используется PAL 25 кадров/сек, 720х576 пикселей!

Вот ваше исходное видео
G:\ВИДЕО САД\8 марта 2017год\гномы\Видео 1.avi

Формат : DV
Ширина : 720 пикселей
Высота : 576 пикселей
Частота кадров : 25,000 кадров/сек

А Вы его выводите в:
G:\ВИДЕО \САД\22\VIDEO_TS\VTS_01_1.VOB
Формат : MPEG-PS
Ширина : 720 пикселей
Высота : 480 пикселей
Частота кадров : 29,970 (30000/1001) кадров/сек
Стандарт вещания : NTSC

Вывод: Нужно вывести с такими же параметрами, как исходное видео! 720х576 PAL!


-------------------------------
Ответить с цитированием
Эти 4 пользователей(ля) поблагодарили Nike за это полезное сообщение:
Скрыть список поблагодаривших

Fantast (11.03.2017), mozgonov (11.03.2017), SKOBEL (11.03.2017), Наталья Э (11.03.2017)
  (#77) Старый
Отзывов: (0)
 
Аватар для Наталья Э
 
Сообщений: 31
Благодарностей: 1
Регистрация: 28.10.2008
Адрес: Костанай Kazakhstan
Конфигурация компа:
Фото/видео:
Отправить сообщение для Наталья Э с помощью Skype™
По умолчанию 11.03.2017, 09:24

Попробую, спасибо больше....!!! но самое ужасное ,что в настойках (в студии) ни чего не меняется,при выводе в VIDEO_TS.. Все опции отключены. А при смене типа файла,меняются параметры (меньше пикселей Ширина Высота). Что при захвате начального видео ,что и при выводе фильма ни чего не меняется,как были полосы по бокам так и есть..Все таки полагаю нужно менять программу.(на Какую...??) Раньше даже не замечала этого.а сейчас у всех телевизоры с широким экраном ,и смотрятся мои" видюхи " как то не очень.
Ответить с цитированием
  (#78) Старый
Основатель форума
Отзывов: (498)
 
Аватар для Доктор ВОВАН
 
Сообщений: 9,508
Благодарностей: 63196
Регистрация: 07.11.2005
Адрес: Питер Russian Federation
Конфигурация компа:
Отправить сообщение для Доктор ВОВАН с помощью ICQ Отправить сообщение для Доктор ВОВАН с помощью Skype™
По умолчанию 11.03.2017, 12:06

Да не думайте об этом, не стоит портить оригинал (тем более что он наверно старый и важный) Делайте вывод как есть . а полоски убирайте настройкой телика, в основном у них у всех есть разные масштабы просмотра. в противном случае , или вы обрежете вверх , или растяните низ.
в свойствах проекта поставьте по первому клипу. Проверьте его потом чтобы было
Ширина : 720 пикселей
Высота : 576 пикселей
Частота кадров : 25,000 кадров/сек

а уж потом можете поэкспериментировать с выводом в разные форматы.


[Для просмотра данной ссылки нужно ]
Ответить с цитированием
Эти 2 пользователей(ля) поблагодарили Доктор ВОВАН за это полезное сообщение:
  (#79) Старый
Photo

Отзывов: (7)
 
Аватар для Nike
 
Сообщений: 3,923
Благодарностей: 12769
Регистрация: 06.03.2006
Адрес: 31 Russian Federation
Конфигурация компа:
Фото/видео:
Отправить сообщение для Nike с помощью ICQ Отправить сообщение для Nike с помощью Skype™
По умолчанию 11.03.2017, 12:16

Доктор ВОВАН
Я так понял, что исходник-то в норме. Просто вывод сделан в NTSC! Там либо pixie не стоят, либо в проекте стоит футаж NTSC. Через тим надо глядеть)


-------------------------------
Ответить с цитированием
Эти 2 пользователей(ля) поблагодарили Nike за это полезное сообщение:
  (#80) Старый
Основатель форума
Отзывов: (498)
 
Аватар для Доктор ВОВАН
 
Сообщений: 9,508
Благодарностей: 63196
Регистрация: 07.11.2005
Адрес: Питер Russian Federation
Конфигурация компа:
Отправить сообщение для Доктор ВОВАН с помощью ICQ Отправить сообщение для Доктор ВОВАН с помощью Skype™
По умолчанию 11.03.2017, 13:27

[Для просмотра данной ссылки нужно ], пиксие вряд ли, и еще проект стоит как NTSC, а не по первому.


[Для просмотра данной ссылки нужно ]
Ответить с цитированием
Ответ

Социальные закладки


Здесь присутствуют: 1 (пользователей: 0 , гостей: 1)
 
Опции темы

Ваши права в разделе
Вы не можете создавать новые темы
Вы не можете отвечать в темах
Вы не можете прикреплять вложения
Вы не можете редактировать свои сообщения

BB коды Вкл.
Смайлы Вкл.
[IMG] код Вкл.
HTML код Выкл.
Trackbacks are Выкл.
Pingbacks are Выкл.
Refbacks are Выкл.


Похожие темы
Тема Автор Раздел Ответов Последнее сообщение
Студия 10 - дрожит картинка NickB Pinnacle Studio 10 13 26.08.2006 13:56
FAQ: Что такое HDTV? Slava2 FAQ (Часто задаваемые вопросы) 0 10.08.2006 21:36



Все использованные на сайте названия продуктов и торговые марки принадлежат их законным владельцам.
При перепечатке или ретрансляции материалов с сервера DrBOBAH.com ссылка на сайт обязательна!
SEO by vBSEO ©2011, Crawlability, Inc.1


Принимаем WebMoney Наша кнопка