pinnacle studio  

Вернуться   pinnacle studio > Софт > Прочие NLE > Canopus


Недвижимость в Йошкар-Оле
Закрытая тема
 
LinkBack Опции темы
  (#1031) Старый
EXTREME USER
Отзывов: (2)
 
Сообщений: 1,198
Благодарностей: 2376
Регистрация: 14.06.2009
Страна: Honduras
Конфигурация компа:
Фото/видео:
Отправить сообщение для franch-s удален с помощью ICQ
По умолчанию 17.10.2011, 18:34

просит ключ хоть на чистую хоть на грязную винду
 
  (#1032) Старый
Отзывов: (0)
 
Аватар для egonja
 
Сообщений: 311
Благодарностей: 263
Регистрация: 02.04.2009
Адрес: Вилегодск Russian Federation
Конфигурация компа:
Фото/видео:
Drinks 17.10.2011, 19:36

выкладываю сдесь. чтобы каждому не отпровлять. сам ставил поверх на уже установленную со всеми плагами 6.02 проверено работает и на 7(32х) и на хр(32х sp3) если что то неполучается смотрите вашу систему.
Скрытый текст (вы должны войти под своим логином или зарегистрироваться и иметь 3 сообщение(ий)):
У вас нет прав чтобы видеть скрытый текст, содержащейся здесь.
Эти 10 пользователей(ля) поблагодарили egonja за это полезное сообщение:
Скрыть список поблагодаривших

beatl (18.10.2011), Fedya (21.10.2011), franch-s удален (17.10.2011), IA (17.10.2011), Invader (17.10.2011), Tourist (25.10.2011), TVS (17.10.2011), алексей-09 (17.10.2011), Владимиржук (18.10.2011), ТИХОнечка (17.10.2011)
  (#1033) Старый
Отзывов: (0)
 
Аватар для Invader
 
Сообщений: 320
Благодарностей: 389
Регистрация: 23.09.2008
Адрес: Россия Russian Federation
Конфигурация компа:
Фото/видео:
Drinks 17.10.2011, 22:32

egonja, на обеих машинах всё заработало! Огромное спасибо тебе.
  (#1034) Старый
Отзывов: (0)
 
Аватар для beatl
 
Сообщений: 441
Благодарностей: 1366
Регистрация: 14.05.2008
Адрес: Ромны , Сумская обл . Ukraine
Конфигурация компа:
Фото/видео:
Отправить сообщение для beatl с помощью ICQ Отправить сообщение для beatl с помощью Skype™
По умолчанию 17.10.2011, 23:10

к 6.05 knoll light factory прикручивается ?
  (#1035) Старый
fvg fvg вне форума , последняя активность:  Сегодня 15:18
Отзывов: (0)
 
Сообщений: 309
Благодарностей: 1335
Регистрация: 17.12.2005
Адрес: г.Днепропетровск Ukraine
Конфигурация компа:
Фото/видео:
По умолчанию 18.10.2011, 00:49

прикручивается, но работает только light factory LE, по крайней мере у меня
Этот участник поблагодарил(а) fvg за это полезное сообщение:
  (#1036) Старый
15 HARD 2

Отзывов: (0)
 
Сообщений: 490
Благодарностей: 525
Регистрация: 13.12.2010
Адрес: Киев Ukraine
Конфигурация компа:
Фото/видео:
Отправить сообщение для DS STUDIO с помощью Skype™
По умолчанию 18.10.2011, 02:43

здраствуйте! у меня очень очень большая проблема,начну из самого начала ....
у меня стояла винда 7-64 максимальная,решыл переустановить но я себе доставил ище диск на 1ТРбайт ,розделил его на два ,один оставил для рендера Эдиуса ,второй для видео .теперь когда переустановил винду у меня автоматически поменялись(назвение) буквы жорстких дисков ,при запуске едиуса указываю путь где сохранялись проекты рендер файли, с этим все впорядке ,но поменялось название диска на котором было видео со самой свадьбы и теперь програма ищет это видео в диске "Д" а там ничего нет потому что диск "Д" стал диском "Е". как можна указать правельно путь чтоб програм увидила все хорошо ...помогите ...очень прошу

я в бине заходил на папку где видео со свадьбы и делал импорт но ниче не помагает ..
может просто букви дисков переменить ?
[Для просмотра данной ссылки нужно ]
[Для просмотра данной ссылки нужно ]


Извините за ошибки при письме...Русский в школе не учили
  (#1037) Старый
Отзывов: (3)
 
Сообщений: 4,696
Благодарностей: 30181
Регистрация: 25.11.2006
Адрес: Тересва Ukraine
Конфигурация компа:
Отправить сообщение для Neb4St с помощью Skype™
По умолчанию 18.10.2011, 03:00

Правой кнопкой по Мой компьютер → Управление → Управление дисками → Правый щелчок по нужному разделу → Изменить букву диска... Но, если на этот разжел поставлен файл подкачки, или системная папка, то не даст изменить. Надо их сначала перенести.
Эти 2 пользователей(ля) поблагодарили Neb4St за это полезное сообщение:
  (#1038) Старый
15 HARD 2

Отзывов: (0)
 
Сообщений: 490
Благодарностей: 525
Регистрация: 13.12.2010
Адрес: Киев Ukraine
Конфигурация компа:
Фото/видео:
Отправить сообщение для DS STUDIO с помощью Skype™
По умолчанию 18.10.2011, 03:39

фуууууууу! помогло ..перейменовал буквы ...спасибо Большле


Извините за ошибки при письме...Русский в школе не учили
  (#1039) Старый
Отзывов: (0)
 
Аватар для Tiras
 
Сообщений: 94
Благодарностей: 71
Регистрация: 18.10.2009
Страна: Russian Federation
Конфигурация компа:
Фото/видео:
Help 18.10.2011, 09:32

Здраствуйте, принесли мне видео для монтожа:
Формат : MPEG-PS
Размер файла : 608 Кбайт
Продолжительность : 960 мс.
Общий поток : 5188 Кбит/сек
Видео
Идентификатор : 224 (0xE0)
Формат : MPEG Video
Версия формата : Version 2
Профиль формата : Main@Main
Параметр BVOP формата : Да
Параметр матрицы формата : По умолчанию
Параметры GOP формата : M=3, N=12
Продолжительность : 880 мс.
Вид битрейта : Переменный
Битрейт : 9100 Кбит/сек
Ширина : 720 пикс.
Высота : 576 пикс.
Соотношение сторон : 16:9
Частота кадров : 25,000 кадр/сек
Стандарт вещания : PAL
Цветовое пространство : YUV
Подвыборка цветности : 4:2:0
Битовая глубина : 8 бит
Тип развёртки : Чересстрочная
Порядок развёртки : Верхнее поле первое
Метод сжатия : С потерями
Бит/(Пиксели*Кадры) : 0.878
Размер потока : 978 Кбайт
Аудио
Идентификатор : 189 (0xBD)-128 (0x80)
Формат : AC-3
Формат/Информация : Audio Coding 3
Расширение режима : CM (complete main)
Режим смешивания : DVD-Video
Продолжительность : 960 мс.
Вид битрейта : Постоянный
Битрейт : 256 Кбит/сек
Канал(ы) : 2 канала(ов)
Расположение каналов : Front: L R
Частота : 48,0 КГц
Битовая глубина : 16 бит
Метод сжатия : С потерями
Задержка видео : -80 мс.
Размер потока : 30,0 Кбайт (5%
Работал постаянно с DV,а теперь незнаю какие поставить настройки для монтожа и вывода, да в фильме также будут присуствовать вставки других форматов. Срочно нужна помощь!!!
  (#1040) Старый
Отзывов: (0)
 
Аватар для mwowan1
 
Сообщений: 304
Благодарностей: 719
Регистрация: 08.12.2008
Адрес: Кемерово Russian Federation
Конфигурация компа:
Фото/видео:
Отправить сообщение для mwowan1 с помощью ICQ Отправить сообщение для mwowan1 с помощью Skype™
По умолчанию 18.10.2011, 17:32

SD DV 720x576 50i 16:9
Этот участник поблагодарил(а) mwowan1 за это полезное сообщение:
Закрытая тема

Социальные закладки

Метки
edius


Здесь присутствуют: 1 (пользователей: 0 , гостей: 1)
 
Опции темы

Ваши права в разделе
Вы не можете создавать новые темы
Вы не можете отвечать в темах
Вы не можете прикреплять вложения
Вы не можете редактировать свои сообщения

BB коды Вкл.
Смайлы Вкл.
[IMG] код Вкл.
HTML код Выкл.
Trackbacks are Выкл.
Pingbacks are Выкл.
Refbacks are Выкл.


Похожие темы
Тема Автор Раздел Ответов Последнее сообщение
Edius 5 64x Fanera Canopus 8 03.07.2010 12:25
Футажи к edius salyamon Canopus 5 06.06.2009 01:15
Лекарство для Edius 4.54 Andrew0777 "Лекарства" 1 01.02.2008 23:27



Все использованные на сайте названия продуктов и торговые марки принадлежат их законным владельцам.
При перепечатке или ретрансляции материалов с сервера DrBOBAH.com ссылка на сайт обязательна!
SEO by vBSEO ©2011, Crawlability, Inc.1


Принимаем WebMoney Наша кнопка